[B] 220522 SBS UHD Inkigayo TXT x ONEUS

0


You must be logged in to view this content.
Mediainfo

General

Complete name : 220522 SBS UHD Inkigayo TXT – Good Boy Gone Bad.mp4
Format : MPEG-4
Format profile : Base Media
Codec ID : isom (isom/iso2/avc1/mp41)
File size : 1.42 GiB
Duration : 3 min 25 s
Overall bit rate mode : Variable
Overall bit rate : 59.4 Mb/s
Encoded date : UTC 1904-01-01 00:00:00
Tagged date : UTC 1904-01-01 00:00:00
Writing application : Lavf58.27.103

Video

ID : 1
Format : AVC
Format/Info : Advanced Video Codec
Format profile : High@L5.2
Format settings, CABAC : Yes
Format settings, ReFrames : 4 frames
Format settings, GOP : M=5, N=10
Codec ID : avc1
Codec ID/Info : Advanced Video Coding
Duration : 3 min 25 s
Bit rate mode : Variable
Bit rate : 59.0 Mb/s
Maximum bit rate : 120 Mb/s
Width : 3 840 pixels
Height : 2 160 pixels
Display aspect ratio : 16:9
Frame rate mode : Constant
Frame rate : 60.000 FPS
Color space : YUV
Chroma subsampling : 4:2:0
Bit depth : 8 bits
Scan type : Progressive
Bits/(Pixel*Frame) : 0.119
Stream size : 1.42 GiB (99%)
Encoded date : UTC 1904-01-01 00:00:00
Tagged date : UTC 1904-01-01 00:00:00
Color range : Limited
Color primaries : BT.709
Transfer characteristics : BT.709
Matrix coefficients : BT.709

Audio

ID : 2
Format : AAC
Format/Info : Advanced Audio Codec
Format profile : LC
Codec ID : 40
Duration : 3 min 25 s
Bit rate mode : Constant
Bit rate : 384 kb/s
Channel(s) : 2 channels
Channel positions : Front: L R
Sampling rate : 48.0 kHz
Frame rate : 46.875 FPS (1024 spf)
Compression mode : Lossy
Stream size : 9.46 MiB (1%)
Default : Yes
Alternate group : 1
Encoded date : UTC 1904-01-01 00:00:00
Tagged date : UTC 1904-01-01 00:00:00



Source link

We will be happy to hear your thoughts

Leave a reply

koreamade
Logo
Enable registration in settings - general
Shopping cart